<?xml version="1.0" standalone="no"?>
<!DOCTYPE svg PUBLIC "-//W3C//DTD SVG 1.1//EN" "http://www.w3.org/Graphics/SVG/1.1/DTD/svg11.dtd" >
<svg>
<metadata>
Created by FontForge 20090622 at Tue May 21 12:06:46 2019
 By deploy user
Copyright (c) BPG-InfoTech, 2009. All rights reserved.
</metadata>
<defs>
<font id="BPGExtraSquareMtavruli" horiz-adv-x="1024" >
  <font-face 
    font-family="BPG ExtraSquare Mtavruli"
    font-weight="400"
    font-stretch="normal"
    units-per-em="2048"
    panose-1="2 6 5 4 2 2 2 6 2 4"
    ascent="1556"
    descent="-492"
    x-height="1063"
    cap-height="1487"
    bbox="-361 -470 2180 1607"
    underline-thickness="104"
    underline-position="-149"
    unicode-range="U+0020-U+2219"
  />
<missing-glyph horiz-adv-x="692" 
 />
    <glyph glyph-name=".notdef" horiz-adv-x="692" 
 />
    <glyph glyph-name=".null" horiz-adv-x="0" 
 />
    <glyph glyph-name="nonmarkingreturn" horiz-adv-x="692" 
 />
    <glyph glyph-name="space" unicode=" " horiz-adv-x="692" 
 />
    <glyph glyph-name="dollar" unicode="$" horiz-adv-x="1384" 
d="M323 511v-29q0 -18 -1 -27q0 -8 -0.5 -15t-0.5 -12q0 -152 49 -204t189 -52h30q12 0 21 1v494q-255 6 -355 92q-106 90 -106 312q0 230 98 333h-1q99 103 320 103q16 0 26.5 -0.5t18.5 -0.5v101h178v-102h21q221 0 324 -86q102 -86 102 -278q0 -12 -1.5 -33t-5.5 -68
h-189v39q0 8 0.5 18t0.5 25q0 114 -46 151q-50 40 -197 40h-9v-459q131 -5 218.5 -29t138.5 -67q105 -90 105 -318q0 -245 -96 -354q-97 -110 -315 -110h-51v-92h-178v94q-1 0 -4 -0.5t-4 -0.5q-8 0 -15.5 -0.5t-11.5 -0.5q-234 0 -340 102q-107 102 -107 326q0 12 1 33
t3 47v27h190zM789 168h19q148 0 198 53q51 52 51 213q0 132 -56 176q-55 46 -211 52zM611 1317h-22q-149 0 -198 -48q-48 -50 -48 -198q0 -119 48 -158q52 -38 220 -52v456z" />
    <glyph glyph-name="percent" unicode="%" horiz-adv-x="1858" 
d="M1455 153q101 0 130 30q29 32 29 159v246q0 129 -29 160q-31 31 -130 31h-69q-98 0 -128 -31q-29 -29 -29 -160v-246q0 -63 6.5 -103t21.5 -56q14 -16 46.5 -23t82.5 -7h69zM474 710q97 0 126 30q29 32 29 160v245q0 131 -30 161q-28 31 -125 31h-72q-96 0 -129 -31
q-29 -32 -29 -161v-245q0 -128 28 -160q30 -30 130 -30h72zM576 -18l524 1523h180l-525 -1523h-179zM394 540q-175 0 -245 74q-71 72 -71 254v307q0 180 72 255q70 75 244 75h87q173 0 244 -74q35 -38 53 -101t18 -155v-307q0 -92 -18 -155t-53 -101q-71 -72 -244 -72h-87z
M1377 -18q-173 0 -245 74q-71 76 -71 256v305q0 180 71 256q73 75 245 75h87q173 0 244 -74q72 -75 72 -257v-305q0 -182 -72 -257q-70 -73 -244 -73h-87z" />
    <glyph glyph-name="ampersand" unicode="&#x26;" horiz-adv-x="1489" 
d="M526 736q-57 -2 -98.5 -15.5t-63.5 -41.5q-47 -56 -47 -221q0 -122 12 -168q6 -23 15.5 -40t23.5 -28q27 -26 98 -38h-1q75 -12 263 -12q75 0 133.5 9t95.5 26q32 16 54.5 40t33.5 56zM1205 169q-54 -101 -162 -144q-57 -23 -157 -33.5t-244 -10.5q-102 0 -175.5 6.5
t-120.5 21.5q-95 29 -155 101q-20 24 -35 56.5t-24.5 76.5t-14 101t-4.5 130q0 91 17 164.5t46 120.5q28 39 72.5 69.5t101.5 47.5q-57 51 -83.5 123.5t-26.5 173.5q0 94 25 157.5t75 101.5q97 73 352 73q242 0 348 -78q110 -80 110 -258v-141h-200v131q0 94 -37 125
q-20 17 -75 24t-146 7q-170 0 -212 -28q-33 -26 -33 -114q0 -128 129 -237l11 -9l123.5 -103.5l120.5 -101l121 -101.5l125 -104v180h200v-233q0 -22 -2 -48.5t-8 -58.5l139.5 -117l139.5 -115l-119 -143z" />
    <glyph glyph-name="quotesingle" unicode="'" horiz-adv-x="295" 
d="M217 1434v-577h-137v577h137z" />
    <glyph glyph-name="parenleft" unicode="(" horiz-adv-x="664" 
d="M138 989q0 143 20.5 242t61.5 157q84 117 290 117h82v-190h-65q-111 0 -145 -51q-19 -28 -28 -98t-9 -182v-480q0 -225 37 -280q35 -52 145 -52h65v-190h-82q-206 0 -290 117q-41 58 -61.5 157t-20.5 242v491z" />
    <glyph glyph-name="parenright" unicode=")" horiz-adv-x="664" 
d="M526 498q0 -283 -83 -399q-84 -117 -289 -117h-82v190h64q111 0 145 52q38 54 38 280v480q0 226 -38 280q-33 51 -145 51h-64v190h82q205 0 289 -117q83 -115 83 -399v-491z" />
    <glyph glyph-name="asterisk" unicode="*" 
d="M406 1045l106 -60l104 59v120l-104 62l-106 -61v-120zM367 1021h-275v168h276l-137 238l142 83l139 -238l139 238l142 -83l-136 -238h275v-168h-275l136 -237l-142 -84l-139 237l-139 -238l-142 83z" />
    <glyph glyph-name="plus" unicode="+" horiz-adv-x="1706" 
d="M921 1227v-547h534v-134h-534v-546h-134v546h-536v134h536v547h134z" />
    <glyph glyph-name="comma" unicode="," horiz-adv-x="692" 
d="M241 0v250h210v-274q0 -87 -55 -134t-155 -47v126q38 4 55 16.5t17 38.5v24h-72z" />
    <glyph glyph-name="hyphen" unicode="-" horiz-adv-x="825" 
d="M121 472v175h583v-175h-583z" />
    <glyph glyph-name="period" unicode="." horiz-adv-x="692" 
d="M116 0v250h208v-250h-208z" />
    <glyph glyph-name="slash" unicode="/" horiz-adv-x="545" 
d="M110 -185h-174l525 1690h177z" />
    <glyph glyph-name="zero" unicode="0" horiz-adv-x="1384" 
d="M756 170q113 0 161 14h-1q50 16 80 47q32 32 42 80q6 25 9.5 72.5t3.5 116.5v485q0 70 -3.5 117t-9.5 72q-11 49 -42 81q-17 16 -37.5 28t-46.5 20q-51 14 -156 14h-127q-113 0 -164 -14q-45 -13 -76 -46q-14 -16 -25.5 -36.5t-17.5 -45.5t-9.5 -72.5t-3.5 -117.5v-483
q0 -69 3.5 -117t9.5 -74q6 -24 17.5 -44.5t25.5 -35.5q16 -17 35 -28t42 -19h-1q50 -14 164 -14h127zM623 -18q-272 0 -383 115q-111 117 -111 401v491q0 285 111 401q111 115 383 115h139q274 0 383 -115h-1q111 -117 111 -401v-491q0 -284 -111 -401h1
q-109 -115 -383 -115h-139z" />
    <glyph glyph-name="one" unicode="1" horiz-adv-x="1384" 
d="M707 0v1276l-161 -161.5l-160 -160.5l-126 126l408 407h236v-1487h-197z" />
    <glyph glyph-name="two" unicode="2" horiz-adv-x="1384" 
d="M145 0v265q0 57 4.5 103t14.5 80q19 70 61 122q41 49 101 81q29 14 79.5 32t116.5 36l163.5 45l163.5 45q145 39 180 90q12 16 16 47q6 34 6 134q0 51 -3.5 86t-9.5 55q-5 17 -15.5 32.5t-24.5 25.5q-29 19 -113 28.5t-233 9.5q-203 0 -255 -43q-48 -38 -48 -179v-105
h-204v115q0 225 109 313q54 45 156 66t253 21q81 0 147 -2.5t108 -6.5t76 -11t57 -18q54 -25 95 -58t61 -73q43 -83 43 -271q0 -211 -65 -297q-30 -42 -92.5 -76t-148.5 -60l-202.5 -57l-202.5 -56q-125 -37 -158 -74q-32 -36 -32 -115v-139h901v-191h-1105z" />
    <glyph glyph-name="three" unicode="3" horiz-adv-x="1384" 
d="M141 519h200v-149q0 -119 59 -157q66 -43 305 -43q169 0 235 17q28 8 51 21t36 30q10 17 16 61q6 45 6 161q0 126 -48 164q-50 39 -185 39h-241v187h221q135 0 182 44v-1q46 46 46 197q0 104 -11 139q-5 15 -13 28t-20 22q-22 19 -94.5 27.5t-210.5 8.5q-202 0 -257 -37
q-51 -33 -51 -133v-151h-200v147q0 97 30 167.5t87 112.5q57 40 156 62t231 22q86 0 150.5 -2.5t106.5 -7.5t77.5 -13.5t60.5 -20.5q42 -21 75 -52t51 -71q17 -39 26.5 -98.5t9.5 -140.5q0 -91 -11.5 -153.5t-36.5 -99.5q-36 -54 -104 -80q47 -15 73.5 -35t47.5 -50
q54 -72 54 -237q0 -50 -2 -91t-7 -75.5t-12.5 -63t-17.5 -53.5q-44 -99 -151 -141q-105 -38 -352 -38q-116 0 -194 4.5t-122 15.5q-43 11 -78.5 28t-62.5 43h1q-58 53 -85 128t-27 185v133z" />
    <glyph glyph-name="four" unicode="4" horiz-adv-x="1384" 
d="M326 529h554v723zM110 337v212l719 938h252v-958h220v-192h-220v-337h-201v337h-770z" />
    <glyph glyph-name="five" unicode="5" horiz-adv-x="1384" 
d="M136 463h201v-115q0 -103 57 -140h-1q64 -38 287 -38h50q121 0 172 18q25 8 46 23.5t38 35.5q18 20 26 57q5 20 7 53t2 79v66q0 54 -1.5 94.5t-5.5 66.5q-8 49 -23 81q-27 55 -88 78q-66 24 -215 24q-197 0 -262 -29q-60 -25 -64 -110h-198v780h996v-192h-797v-346
q19 18 40 30t46 21q38 14 102 19.5t157 5.5q82 0 142 -4t99 -13t74.5 -25.5t62.5 -36.5q36 -31 63.5 -71t43.5 -86v1q16 -46 23.5 -116.5t7.5 -165.5q0 -181 -25 -269v1q-26 -92 -86 -148q-32 -29 -70.5 -50.5t-84.5 -34.5q-43 -13 -110 -19t-158 -6q-225 0 -318 27
q-94 25 -153 93q-41 49 -62 112t-21 136v113z" />
    <glyph glyph-name="six" unicode="6" horiz-adv-x="1384" 
d="M1053 567q0 104 -53 138q-29 19 -104 27.5t-198 8.5q-72 0 -126 -4t-92 -12q-71 -16 -99 -46q-11 -11 -17.5 -26.5t-11.5 -38.5q-11 -50 -11 -142q0 -89 7 -140t22 -69q36 -47 102 -67h-1q71 -20 273 -20q201 0 257 36q52 33 52 148v207zM151 1090q0 225 103 321
q105 94 343 94h225q229 0 329 -79q105 -80 105 -259v-97h-201v65q0 107 -54 140q-57 38 -273 38q-148 0 -220 -9q-65 -8 -94 -28q-32 -20 -51.5 -67t-19.5 -104v-279q41 44 99 67q45 17 119 25.5t173 8.5q280 0 395 -71q123 -75 123 -243v-263q0 -220 -129 -303
q-56 -38 -144 -52h1q-41 -8 -117 -11t-190 -3q-293 0 -407 98q-115 99 -115 345v666z" />
    <glyph glyph-name="seven" unicode="7" horiz-adv-x="1384" 
d="M169 1295v192h1079v-184l-706 -1303h-239l723 1295h-857z" />
    <glyph glyph-name="eight" unicode="8" horiz-adv-x="1384" 
d="M702 858q107 0 173.5 11t94.5 31q54 40 54 180q0 41 -1.5 71t-5.5 49q-4 18 -9 31.5t-11 24.5q-11 16 -33 27t-59 18t-90.5 10.5t-126.5 3.5q-65 0 -114.5 -2.5t-84.5 -8t-58 -14.5t-36 -22q-18 -18 -25 -51q-9 -39 -9 -146q0 -133 55 -172q58 -41 286 -41zM690 172
q69 0 121.5 3t87.5 8q30 5 54.5 13.5t38.5 19.5q31 25 41 62q14 44 14 142q0 78 -8 121q-8 41 -23 63q-25 39 -85 55q-32 8 -92 12t-149 4q-75 0 -128.5 -3t-86.5 -8q-59 -9 -87 -32q-27 -23 -39 -68.5t-12 -125.5q0 -99 11 -146q8 -40 30 -61h-1q13 -14 38 -25t57 -19
q73 -15 218 -15zM184 683q35 55 116 89q-67 30 -98 84q-43 71 -43 228q0 123 12 180q14 62 44 109q49 72 158 103q107 29 327 29q165 0 268 -19t151 -57q60 -51 85 -122v1q24 -68 24 -213q0 -81 -12 -142.5t-34 -99.5q-32 -55 -96 -83q38 -16 67 -37.5t46 -50.5
q48 -75 48 -244q0 -80 -5 -139t-16 -99q-22 -77 -75 -127q-28 -25 -68 -43t-91 -28t-129 -15t-187 -5q-214 0 -316 30q-103 30 -163 104q-17 20 -28.5 48t-19.5 63q-7 33 -9.5 84.5t-2.5 122.5q0 176 47 249z" />
    <glyph glyph-name="nine" unicode="9" horiz-adv-x="1384" 
d="M311 916q0 -103 53 -138q58 -36 302 -36q145 0 218 16q34 8 59 19t39 28q19 19 28 62q11 50 11 145q0 91 -7 141t-21 67q-20 25 -46 41.5t-59 27.5q-35 11 -103 15.5t-168 4.5q-199 0 -255 -37q-51 -33 -51 -148v-208zM1213 394q0 -226 -103 -320q-100 -93 -343 -93h-225
q-230 0 -330 76q-104 81 -104 259v97h201v-65q0 -107 54 -141q60 -37 273 -37q148 0 219 9h-1q67 11 96 28q16 10 29 27.5t22.5 40t14.5 49t5 54.5v283q-39 -45 -100 -70q-45 -17 -119 -25.5t-174 -8.5q-276 0 -396 70q-120 75 -120 243v265q0 217 129 302q29 17 67 31.5
t81 21.5q84 15 300 15q292 0 408 -99q116 -98 116 -345v-667z" />
    <glyph glyph-name="colon" unicode=":" horiz-adv-x="692" 
d="M241 0v250h210v-250h-210zM241 811v252h210v-252h-210z" />
    <glyph glyph-name="semicolon" unicode=";" horiz-adv-x="692" 
d="M241 811v252h210v-252h-210zM241 0v250h210v-274q0 -87 -55 -134t-155 -47v126q38 4 55 16.5t17 38.5v24h-72z" />
    <glyph glyph-name="less" unicode="&#x3c;" horiz-adv-x="1706" 
d="M1445 1004l-960 -391l480.5 -194.5l479.5 -193.5v-149l-1184 483v107l1184 488v-150z" />
    <glyph glyph-name="equal" unicode="=" horiz-adv-x="1706" 
d="M1455 499v-134h-1204v134h1204zM1455 862v-134h-1204v134h1204z" />
    <glyph glyph-name="greater" unicode="&#x3e;" horiz-adv-x="1706" 
d="M1445 666v-107l-1184 -483v149l959 388l-480 195.5l-479 195.5v149z" />
    <glyph glyph-name="question" unicode="?" horiz-adv-x="1063" 
d="M368 0v224h200v-224h-200zM368 397v134q0 95 44 151q43 57 197 124l3 1q2 1 4.5 2t4.5 2q66 29 107.5 53.5t55.5 44.5h-1q17 25 25 73.5t8 124.5q0 126 -42 167q-42 43 -172 43q-72 0 -125.5 -2t-85.5 -6q-54 -6 -76 -22q-24 -20 -35.5 -65t-11.5 -127q0 -17 0.5 -29
t0.5 -21v-45h-198v164q0 185 109 264q107 77 373 77q133 0 222.5 -21.5t138.5 -66.5h-1q98 -86 98 -314q0 -183 -40 -275q-41 -92 -144 -138h1q-14 -7 -34.5 -16l-46.5 -20q-84 -38 -131.5 -80.5t-47.5 -84.5v-92h-200z" />
    <glyph glyph-name="at" unicode="@" horiz-adv-x="2048" 
d="M1245 716q-17 83 -67 128.5t-122 45.5q-140 0 -232 -122q-94 -125 -94 -317q0 -99 48 -154t134 -55q47 0 91 17.5t80 46.5q77 68 103 175zM1336 974h129l-141 -571l1 1q-5 -22 -8 -36.5l-5 -24t-3 -15.5t-1 -10q0 -33 22.5 -51.5t62.5 -18.5q46 0 96.5 20t96.5 56
q43 36 78.5 85.5t60.5 108.5t39 125.5t14 138.5q0 238 -186 391q-94 78 -214 116t-268 38q-165 0 -303.5 -47.5t-250.5 -141.5q-137 -119 -209.5 -276t-72.5 -344q0 -165 57 -289t174 -219v1q97 -78 231.5 -122t285.5 -44q165 0 324 50t299 146l60 -85q-306 -231 -663 -231
q-382 0 -617 184q-155 117 -229 272t-74 361q0 204 85 379.5t251 312.5q132 109 296 164t358 55q161 0 305 -43q72 -23 134.5 -54t113.5 -70q127 -99 194 -229t67 -281q0 -171 -62 -309.5t-182 -233.5q-72 -54 -151.5 -82.5t-162.5 -28.5q-183 0 -204 132
q-51 -65 -118.5 -98.5t-148.5 -33.5q-160 0 -242 85t-82 253q0 233 136 390q137 161 334 161q175 0 249 -133z" />
    <glyph glyph-name="A" unicode="A" horiz-adv-x="1417" 
d="M424 553h571l-136.5 371l-137.5 371h-25zM13 0l550 1487h291l553 -1487h-208l-138 371h-704l-68.5 -185.5l-67.5 -185.5h-208z" />
    <glyph glyph-name="B" unicode="B" horiz-adv-x="1436" 
d="M376 862h503q118 0 158 40q38 40 38 188q0 137 -40 171q-43 34 -226 34h-433v-433zM376 191h509q139 0 181 39q43 40 43 216q0 147 -49 187q-48 42 -275 42h-409v-484zM180 0v1487h693q244 0 323 -75q83 -77 83 -305q0 -82 -11 -145t-29 -101q-28 -52 -89 -82
q79 -33 116 -95q49 -79 49 -260q0 -248 -101 -336q-100 -88 -391 -88h-643z" />
    <glyph glyph-name="C" unicode="C" horiz-adv-x="1399" 
d="M129 989q0 286 112 401t390 115h170q276 0 388 -99q115 -99 115 -333v-83h-205v60q0 156 -60 210q-61 55 -250 55h-112q-65 0 -111.5 -4t-75.5 -11q-53 -15 -90 -50q-37 -36 -52 -87q-7 -28 -10.5 -81t-3.5 -133v-412q0 -155 14 -213q14 -52 52 -88q35 -34 87 -49
q26 -8 74 -11.5t116 -3.5h112q192 0 253 58q60 57 60 228q0 27 -1 51.5t-2 37.5h205v-115q0 -250 -112 -350h1q-109 -100 -392 -100h-170q-278 0 -390 115t-112 401v491z" />
    <glyph glyph-name="D" unicode="D" horiz-adv-x="1536" 
d="M376 182h494q202 0 266 65q66 66 66 257v468q0 202 -66 267q-63 66 -266 66h-494v-1123zM177 0v1487h719q280 0 396 -113q116 -114 116 -390v-478q0 -277 -117 -392q-116 -114 -395 -114h-719z" />
    <glyph glyph-name="E" unicode="E" horiz-adv-x="1309" 
d="M175 0v1487h1055v-192h-857v-435h833v-187h-833v-482h857v-191h-1055z" />
    <glyph glyph-name="F" unicode="F" horiz-adv-x="1214" 
d="M173 0v1487h944v-192h-745v-435h722v-187h-722v-673h-199z" />
    <glyph glyph-name="G" unicode="G" horiz-adv-x="1503" 
d="M121 989q0 285 120 401q121 115 421 115h183q278 0 409.5 -96t131.5 -298v-81h-204v37q0 141 -68 193q-71 55 -278 55h-128q-75 0 -126.5 -4t-82.5 -11q-62 -15 -103 -52q-38 -32 -54 -87v1q-7 -29 -11 -82t-4 -131v-412q0 -78 4 -130t11 -81v1q16 -55 54 -88
q44 -38 101 -51q30 -8 82.5 -12t128.5 -4h128q136 0 190 14q26 7 49.5 18t42.5 28q34 31 48 80q8 27 12 75t4 117v70h-402v186h606v-262q0 -287 -120 -402q-120 -114 -421 -114h-183q-301 0 -421 114q-120 115 -120 402v491z" />
    <glyph glyph-name="H" unicode="H" horiz-adv-x="1546" 
d="M177 0v1487h198v-625h796v625h198v-1487h-198v671h-796v-671h-198z" />
    <glyph glyph-name="I" unicode="I" horiz-adv-x="526" 
d="M163 0v1487h200v-1487h-200z" />
    <glyph glyph-name="J" unicode="J" horiz-adv-x="1208" 
d="M41 547h200v-43q0 -110 12.5 -178.5t35.5 -97.5q45 -56 198 -56h115q154 0 199 56q23 29 35.5 97.5t12.5 178.5v983h199v-1031q0 -251 -100 -362q-100 -112 -332 -112h-143q-121 0 -204 29t-133 86q-95 116 -95 401v49z" />
    <glyph glyph-name="K" unicode="K" horiz-adv-x="1370" 
d="M177 0v1487h199v-613h96l294.5 306.5l293.5 306.5h264l-686 -711l190.5 -191l196.5 -197l196.5 -197l189.5 -191h-274l-665 679h-96v-679h-199z" />
    <glyph glyph-name="L" unicode="L" horiz-adv-x="1223" 
d="M174 0v1487h197v-1296h821v-191h-1018z" />
    <glyph glyph-name="M" unicode="M" horiz-adv-x="1919" 
d="M182 0v1487h296l483 -1255l239 628l239 627h298v-1487h-198v1226l-234 -613.5l-233 -612.5h-225l-467 1225v-1225h-198z" />
    <glyph glyph-name="N" unicode="N" horiz-adv-x="1587" 
d="M177 0v1487h277l755 -1243v1243h199v-1487h-277l-755 1245v-1245h-199z" />
    <glyph glyph-name="O" unicode="O" horiz-adv-x="1526" 
d="M718 1315q-76 0 -128.5 -4t-82.5 -11q-58 -15 -101 -52q-39 -33 -54 -90q-17 -60 -17 -210v-411q0 -73 4.5 -126t12.5 -83q8 -26 22.5 -49.5t31.5 -39.5q44 -38 101 -51q30 -8 82.5 -12t128.5 -4h90q76 0 129 4t83 12q60 13 102 51q38 34 53 87q8 29 12 81t4 130v412
q0 77 -4 129t-12 82q-17 57 -55 90q-20 17 -45.5 29.5t-54.5 20.5q-30 7 -83 11t-129 4h-90zM131 989q0 285 120 401q121 115 422 115h182q303 0 423 -114v1q119 -114 119 -403v-491q0 -286 -121 -402q-120 -114 -421 -114h-182q-302 0 -422 114q-120 115 -120 402v491z" />
    <glyph glyph-name="P" unicode="P" horiz-adv-x="1341" 
d="M1046 1131q0 94 -43 129q-44 35 -200 35h-430v-541h430q78 0 127.5 9.5t72.5 26.5q43 33 43 128v213zM175 0v1487h629q251 0 348 -76q100 -79 100 -274v-219q0 -200 -99 -279h1q-97 -77 -350 -77h-431v-562h-198z" />
    <glyph glyph-name="Q" unicode="Q" horiz-adv-x="1526" 
d="M1191 949q0 153 -16 211q-17 58 -55 90q-20 17 -45.5 29.5t-54.5 20.5q-30 7 -83 11t-129 4h-89q-77 0 -129.5 -4t-82.5 -11q-56 -15 -101 -52q-37 -31 -54 -90q-17 -60 -17 -210v-411q0 -73 4.5 -126t12.5 -83q8 -26 22.5 -49.5t31.5 -39.5q22 -18 47 -31t54 -20
q30 -8 82.5 -12t129.5 -4h125q113 0 167 6q14 2 26 3.5t21 3.5l-134.5 133.5l-132.5 132.5l129 132l263 -259q4 38 6 83.5t2 96.5v445zM131 989q0 286 121 401q120 115 421 115h183q302 0 422 -114v1q120 -114 120 -403v-491q0 -66 -5.5 -121t-13.5 -92q-8 -30 -20 -58
t-29 -49l89 -88l-133 -136l-93 94q-20 -17 -48 -29t-59 -20q-73 -17 -230 -17h-183q-303 0 -421 114q-121 115 -121 402v491z" />
    <glyph glyph-name="R" unicode="R" horiz-adv-x="1432" 
d="M374 1295v-541h443q174 0 224 40q49 40 49 146v169q0 107 -48 146q-25 20 -80.5 30t-144.5 10h-443zM176 0v1487h673q250 0 347 -76q100 -79 100 -274v-219q0 -202 -140 -260q63 -28 96 -77q44 -67 44 -213v-368h-206v318q0 151 -45 197q-42 49 -177 49h-494v-564h-198z
" />
    <glyph glyph-name="S" unicode="S" horiz-adv-x="1460" 
d="M136 511h200v-47q0 -65 5 -110.5t13 -74.5q17 -51 56 -75q17 -8 42.5 -15t57.5 -11q38 -4 113 -6t186 -2q118 0 183 15t95 48q16 17 23.5 60t7.5 119q0 152 -29 189q-27 36 -115 43l-446 35q-208 16 -290 107q-42 45 -62 119.5t-20 178.5q0 127 28.5 209.5t85.5 135.5
q48 42 131 59q40 8 109.5 12.5t172.5 4.5h52q226 0 318 -22q96 -24 160 -78q89 -77 89 -276q0 -28 -1 -52.5t-2 -36.5h-199v55q0 76 -8 115t-25 57q-27 26 -98 36q-77 12 -290 12q-109 0 -175.5 -11t-92.5 -34q-51 -48 -51 -188q0 -59 8.5 -99t24.5 -62v1q17 -20 49.5 -32.5
t82.5 -15.5l455 -38q187 -17 264 -106q76 -91 76 -290q0 -72 -4 -127t-15 -92q-21 -76 -65 -127q-28 -30 -66.5 -53.5t-85.5 -35.5q-47 -13 -128.5 -18.5t-200.5 -5.5h-72q-101 0 -172.5 5t-116.5 16t-81.5 29.5t-65.5 45.5h1q-58 49 -85 132.5t-27 210.5v91z" />
    <glyph glyph-name="T" unicode="T" horiz-adv-x="1069" 
d="M-27 1295v192h1123v-192h-463v-1295h-199v1295h-461z" />
    <glyph glyph-name="U" unicode="U" horiz-adv-x="1532" 
d="M163 1487h200v-969q0 -138 14 -191v1q8 -25 19.5 -45t28.5 -36h-1q35 -32 84 -46q25 -5 70.5 -8.5t111.5 -3.5h152q66 0 112 3.5t71 8.5q23 7 45 19t40 27h-1q17 16 28 35.5t18 43.5q14 53 14 192v969h200v-989q0 -285 -116 -401q-114 -115 -399 -115h-176
q-286 0 -400 115q-115 115 -115 401v989z" />
    <glyph glyph-name="V" unicode="V" horiz-adv-x="1331" 
d="M-9 1487h214l448 -1259l225 630l225 629h213l-545 -1487h-235z" />
    <glyph glyph-name="W" unicode="W" horiz-adv-x="2062" 
d="M62 1487h205l317 -1197l159 600l159 597h256l321 -1197l158 599.5l158 597.5h207l-406 -1487h-234l-332 1220l-163 -610.5l-163 -609.5h-242z" />
    <glyph glyph-name="X" unicode="X" horiz-adv-x="1305" 
d="M-35 0l582 780l-129.5 174.5l-133.5 179.5l-133.5 179l-129.5 174h233l399 -554l198 277.5l199 276.5h236l-527 -705l143 -193.5l146.5 -197.5l146.5 -198l143 -193h-231l-452 631l-230 -316l-228 -315h-232z" />
    <glyph glyph-name="Y" unicode="Y" horiz-adv-x="1219" 
d="M707 0h-196v654l-153 205.5l-157 211.5l-157 211l-152 205h237l479 -661l240 331.5l239 329.5h238l-618 -830v-657z" />
    <glyph glyph-name="Z" unicode="Z" horiz-adv-x="1331" 
d="M92 0v199l909 1106h-867v182h1097v-195l-904 -1101h904v-191h-1139z" />
    <glyph glyph-name="bracketleft" unicode="[" horiz-adv-x="664" 
d="M138 1487h454v-192h-260v-1102h260v-193h-454v1487z" />
    <glyph glyph-name="backslash" unicode="\" horiz-adv-x="545" 
d="M638 -185h-177l-527 1690h178z" />
    <glyph glyph-name="bracketright" unicode="]" horiz-adv-x="664" 
d="M526 1487v-1487h-454v193h259v1102h-259v192h454z" />
    <glyph glyph-name="asciicircum" unicode="^" horiz-adv-x="2048" 
d="M1100 1457l552 -580h-191l-437 434l-219.5 -217.5l-219.5 -216.5h-192l555 580h152z" />
    <glyph glyph-name="underscore" unicode="_" 
d="M1030 -334v-136h-1036v136h1036z" />
    <glyph glyph-name="grave" unicode="`" 
d="M533 1146l-292 377h198l227 -377h-133z" />
    <glyph glyph-name="a" unicode="a" horiz-adv-x="1157" 
d="M823 388q0 63 -69.5 92.5t-222.5 29.5q-140 0 -188 -34q-42 -32 -42 -128q0 -110 45 -146q25 -17 75 -26.5t126 -9.5q134 0 205 29.5t71 84.5v108zM833 71q-43 -45 -116.5 -65t-189.5 -20q-247 0 -335 73q-88 75 -88 271q0 57 5 100.5t15.5 77t27 59t40.5 45.5
q44 36 117 49q36 6 88.5 9.5t121.5 3.5t124.5 -6.5t93.5 -17.5q24 -8 46.5 -18.5t39.5 -25.5v127q0 116 -41 146q-45 34 -233 34q-67 0 -112 -7t-66 -21q-38 -23 -40 -114h-189v43q0 142 93 204q91 59 305 59q82 0 144.5 -3.5t105.5 -10.5q45 -6 78.5 -18t55.5 -29
q49 -40 70 -96q19 -53 19 -184v-736h-176z" />
    <glyph glyph-name="b" unicode="b" horiz-adv-x="1176" 
d="M346 448q0 -150 70 -218t224 -68q141 0 183 47q45 48 45 235v175q0 186 -45 234q-44 48 -183 48q-154 0 -224 -68t-70 -218v-167zM157 0v1487h189v-522q48 54 121.5 83t178.5 29q229 0 322 -96q96 -98 96 -328v-243q0 -231 -96 -327q-93 -97 -322 -97q-113 0 -186.5 27.5
t-118.5 89.5v-103h-184z" />
    <glyph glyph-name="c" unicode="c" horiz-adv-x="1157" 
d="M544 -14q-238 0 -335 96q-97 94 -97 328v243q0 234 96 329q98 95 334 95h71q110 0 192 -23.5t133 -65.5q49 -45 77 -122.5t30 -183.5l-195 -1q-5 135 -50 176q-45 42 -187 42h-71q-147 0 -191 -47q-22 -23 -32 -81.5t-10 -151.5v-175q0 -189 43 -235q44 -47 190 -47h71
q142 0 189 45q47 44 47 173v37h196v-39q0 -210 -102 -301q-100 -91 -328 -91h-71z" />
    <glyph glyph-name="d" unicode="d" horiz-adv-x="1176" 
d="M829 615q0 150 -70 218t-223 68q-141 0 -184 -48v1q-44 -49 -44 -235v-175q0 -186 44 -235v1q43 -48 184 -48q153 0 223 68t70 218v167zM834 101q-45 -58 -119 -86.5t-184 -28.5q-227 0 -323 97q-96 99 -96 327v243q0 229 96 327q96 97 323 97q63 0 117 -11.5t92 -28.5
q49 -25 89 -72v522h190v-1487h-185v101z" />
    <glyph glyph-name="e" unicode="e" horiz-adv-x="1157" 
d="M309 651h540v20q0 137 -45 182q-46 46 -191 46h-71q-143 0 -189 -46q-44 -44 -44 -182v-20zM544 -14q-238 0 -335 96q-97 94 -97 328v243q0 234 96 329q98 95 334 95h71q237 0 335 -95q97 -96 97 -329v-174l-737 -1q-1 -12 -1 -28.5v-39.5q0 -152 45 -200t190 -48h71
q130 0 179 35q47 36 56 143h196q-13 -196 -116 -276q-99 -78 -313 -78h-71z" />
    <glyph glyph-name="f" unicode="f" horiz-adv-x="688" 
d="M36 895v168h143v1q0 9 -0.5 21t-0.5 28q0 200 73 288q74 86 253 86q85 0 189 -9v-180q-22 5 -28 5.5t-9 0.5q-4 0 -8.5 0.5t-9.5 0.5q-11 0 -22 0.5t-20 0.5q-18 1 -30 1h-20q-111 0 -144 -32q-32 -27 -32 -162v-50h323v-168h-323v-895h-190v895h-144z" />
    <glyph glyph-name="g" unicode="g" horiz-adv-x="1204" 
d="M860 615q0 150 -70 218t-224 68q-139 0 -185 -49q-45 -48 -45 -233v-175q0 -186 45 -234t185 -48q154 0 224 68t70 218v167zM1049 1063v-1032q0 -233 -94 -328q-95 -95 -325 -95h-70q-207 0 -305 77q-99 78 -114 276h193q12 -107 55 -140q47 -35 173 -35h68
q62 0 105.5 9.5t71.5 29.5t40.5 52t12.5 76v145q-47 -54 -120.5 -83t-179.5 -29q-228 0 -322 97q-95 97 -95 327v243q0 230 95 328q94 96 322 96q112 0 186 -28.5t119 -90.5v105h184z" />
    <glyph glyph-name="h" unicode="h" horiz-adv-x="1180" 
d="M154 0v1487h184v-516q90 106 315 106q212 0 296 -88q87 -86 87 -298v-691h-191v659q0 151 -43 197q-41 45 -168 45q-150 0 -220 -68.5t-70 -217.5v-615h-190z" />
    <glyph glyph-name="i" unicode="i" horiz-adv-x="479" 
d="M145 1277v210h189v-210h-189zM145 0v1063h189v-1063h-189z" />
    <glyph glyph-name="j" unicode="j" horiz-adv-x="508" 
d="M174 1277v210h192v-210h-192zM366 -130q0 -262 -227 -262q-17 0 -40 2t-51 6l-1 156h72q29 0 40 24q15 28 15 155v1112h192v-1193z" />
    <glyph glyph-name="k" unicode="k" horiz-adv-x="991" 
d="M154 0v1487h189v-823h19l167.5 200l167.5 199h223l-403 -475l117.5 -144.5l122 -150l122 -150l117.5 -143.5h-243l-392 486h-18v-486h-189z" />
    <glyph glyph-name="l" unicode="l" horiz-adv-x="479" 
d="M145 0v1487h189v-1487h-189z" />
    <glyph glyph-name="m" unicode="m" horiz-adv-x="1810" 
d="M185 0v1063h186v-87q85 101 287 101q124 0 199 -35t117 -110q47 78 120.5 111.5t187.5 33.5q210 0 293 -86t83 -300v-691h-190v643q0 162 -41 211q-38 47 -157 47q-132 0 -192 -68t-60 -218v-615h-186v713q0 115 -38 150q-40 38 -155 38q-136 0 -200 -69.5t-64 -216.5
v-615h-190z" />
    <glyph glyph-name="n" unicode="n" horiz-adv-x="1180" 
d="M154 0v1063h184v-92q90 106 315 106q212 0 296 -88q87 -86 87 -298v-691h-191v659q0 151 -43 197q-41 45 -168 45q-150 0 -220 -69t-70 -217v-615h-190z" />
    <glyph glyph-name="o" unicode="o" horiz-adv-x="1157" 
d="M849 619q0 185 -44 232q-45 48 -192 48h-71q-147 0 -191 -47q-22 -23 -32 -81.5t-10 -151.5v-175q0 -189 43 -235q44 -47 190 -47h71q147 0 192 48q44 47 44 234v175zM544 -14q-238 0 -335 96q-97 94 -97 328v243q0 234 96 329q98 95 334 95h71q237 0 335 -95
q97 -96 97 -329v-243q0 -235 -97 -329q-98 -95 -333 -95h-71z" />
    <glyph glyph-name="p" unicode="p" horiz-adv-x="1176" 
d="M346 448q0 -150 70 -218t224 -68q141 0 183 47q45 48 45 235v175q0 186 -45 234q-44 48 -183 48q-154 0 -224 -68t-70 -218v-167zM157 1063h184v-105q45 62 119 90.5t186 28.5q229 0 322 -96q96 -98 96 -328v-243q0 -231 -96 -327q-93 -97 -322 -97q-105 0 -178.5 29
t-121.5 83v-490h-189v1455z" />
    <glyph glyph-name="q" unicode="q" horiz-adv-x="1176" 
d="M829 615q0 150 -70 218t-223 68q-141 0 -184 -48v1q-44 -49 -44 -235v-175q0 -186 44 -235v1q43 -48 184 -48q153 0 223 68t70 218v167zM1019 1063v-1455h-190v490q-38 -47 -89 -73q-39 -19 -91 -29t-118 -10q-227 0 -323 97q-96 99 -96 327v243q0 229 96 327
q96 97 323 97q114 0 186.5 -27t116.5 -91v104h185z" />
    <glyph glyph-name="r" unicode="r" horiz-adv-x="958" 
d="M151 0v1063h186v-85q39 53 102.5 76t158.5 23q87 0 150 -23t99 -65q73 -87 73 -298v-28h-191v50q0 114 -34 151q-35 37 -133 37q-58 0 -99.5 -16t-68.5 -50.5t-39.5 -89t-12.5 -130.5v-615h-191z" />
    <glyph glyph-name="s" unicode="s" horiz-adv-x="1194" 
d="M116 343h193v-42q0 -84 49 -114h-1q52 -32 225 -32q190 0 231 32q38 30 38 123t-32 119q-16 14 -59 23.5t-115 13.5q-28 2 -65 3t-85 3q-209 6 -253 31v-1q-64 35 -92 97q-26 61 -26 168q0 180 95 246q91 64 392 64q236 0 321 -61h-1q91 -63 91 -237h-191v29q0 58 -48 76
q-53 25 -225 25q-162 0 -206 -29q-38 -24 -38 -113q0 -54 8 -78q6 -19 23 -27v1q20 -12 68 -18.5t124 -8.5q9 0 16.5 -0.5t13.5 -0.5h18.5t14.5 -1q129 -5 203 -14t109 -24q35 -17 63 -43t43 -55q14 -32 22.5 -76.5t8.5 -101.5q0 -59 -8 -103.5t-22 -76.5q-15 -31 -42.5 -59
t-65.5 -52q-36 -21 -114.5 -32t-212.5 -11q-279 0 -373 67q-95 67 -95 244v46z" />
    <glyph glyph-name="t" unicode="t" horiz-adv-x="1010" 
d="M49 895v168h125v231h191v-231h502v-168h-502v-545q0 -114 34 -152v1q34 -37 136 -37t134 35q34 38 34 153v50h192v-28q0 -224 -78 -305t-310 -81q-185 0 -260 86q-73 87 -73 300v523h-125z" />
    <glyph glyph-name="u" unicode="u" horiz-adv-x="1180" 
d="M1028 1063v-1063h-185v91q-46 -55 -124 -80t-193 -25q-208 0 -295 87q-87 89 -87 299v691h190v-659q0 -151 43 -197q42 -45 171 -45q150 0 218.5 68.5t68.5 217.5v615h193z" />
    <glyph glyph-name="v" unicode="v" horiz-adv-x="967" 
d="M-1 1063h194l290 -839l145.5 419.5l145.5 419.5h189l-366 -1063h-225z" />
    <glyph glyph-name="w" unicode="w" horiz-adv-x="1597" 
d="M54 1063h182l220 -826l110.5 414.5l109.5 411.5h239l223 -826l110 414.5l110 411.5h185l-288 -1063h-238l-221 825l-112 -413l-112 -412h-234z" />
    <glyph glyph-name="x" unicode="x" horiz-adv-x="1036" 
d="M10 0l402 567l-86.5 122l-89.5 126.5l-89.5 126l-86.5 121.5h220l236 -343l118.5 171.5l117.5 171.5h219l-348 -495l99 -139l103 -145l102.5 -145l98.5 -139h-219l-291 417l-142 -208.5l-142 -208.5h-222z" />
    <glyph glyph-name="y" unicode="y" horiz-adv-x="999" 
d="M32 1063h194l290 -839l144.5 420l144.5 419h191l-395 -1140q-65 -185 -135 -252q-70 -70 -189 -70q-18 0 -42 2.5t-58 7.5l1 171q14 -2 30 -3t36 -1q62 0 95 27q36 30 67 115l28 80h-31z" />
    <glyph glyph-name="z" unicode="z" horiz-adv-x="1057" 
d="M111 0v192l610 692h-580v179h828v-168l-632 -719h632v-176h-858z" />
    <glyph glyph-name="braceleft" unicode="{" 
d="M864 1333h-55q-118 0 -158 -43t-40 -185v-235q0 -82 -12 -144t-33 -99q-18 -27 -45.5 -52t-62.5 -40q38 -17 63.5 -39t44.5 -51q45 -75 45 -245v-234q0 -144 39 -186q37 -42 151 -42q3 0 7.5 0.5t10.5 0.5q8 1 22.5 1h22.5v-143h-65q-199 0 -273 77q-73 76 -73 302v237
q0 143 -51 199q-50 54 -175 54q-3 0 -7.5 -0.5t-10.5 -0.5q-8 -1 -22.5 -1h-22.5v145h24t21 -1q6 0 10.5 -0.5t7.5 -0.5q125 0 175 55q51 55 51 198v235q0 226 74 303q73 78 272 78h65v-143z" />
    <glyph glyph-name="bar" unicode="|" 
d="M585 1561v-2031h-144v2031h144z" />
    <glyph glyph-name="braceright" unicode="}" 
d="M573 860q0 -143 51 -198q50 -55 175 -55q3 0 7.5 0.5t10.5 0.5q8 1 22.5 1h22.5v-145h-24t-21 1q-6 0 -10.5 0.5t-7.5 0.5q-126 0 -175 -54q-51 -56 -51 -199v-237q0 -225 -74 -302h1q-72 -77 -273 -77h-65v143h57q120 0 156 41q40 43 40 185v234q0 175 44 247
q17 28 45 49.5t65 38.5q-75 34 -110 90q-23 36 -33.5 97.5t-10.5 147.5v235q0 146 -39 188q-38 42 -151 42q-3 0 -7.5 -0.5t-10.5 -0.5q-8 -1 -22.5 -1h-22.5v143h65q198 0 272 -78q74 -77 74 -303v-235z" />
    <glyph glyph-name="asciitilde" unicode="~" horiz-adv-x="1706" 
d="M1531 629q-106 -75 -204 -111.5t-192 -36.5q-51 0 -115.5 13.5t-144.5 42.5q-15 7 -25 10q2 -1 -1 -1l-17 7q-80 29 -147.5 45t-111.5 16q-39 0 -81.5 -10t-90.5 -31.5t-103.5 -54t-120.5 -77.5v156q110 77 207.5 114t188.5 37q53 0 120.5 -14.5t150.5 -45.5q7 -4 14 -6
q2 -1 3 -1t3 -1t3 -1t2 -1q10 -4 22 -8q160 -57 244 -57q39 0 82 10t91.5 31t103.5 54t119 79v-158z" />
    <glyph glyph-name="dagger" unicode="&#x2020;" 
d="M607 1487v-388h287v-177h-287v-922h-190v922h-287v177h287v388h190z" />
    <glyph glyph-name="degree" unicode="&#xb0;" horiz-adv-x="674" 
d="M520 1162q0 75 -54 129q-52 53 -128 53q-77 0 -130 -53q-54 -54 -54 -129q0 -78 54 -130q53 -52 130 -52t129 52q53 53 53 130zM338 1451q121 0 203 -85q85 -85 85 -204q0 -120 -86 -206q-84 -85 -204 -85q-124 0 -205 84q-84 85 -84 207q0 120 85 205q87 84 206 84z" />
    <glyph glyph-name="section" unicode="&#xa7;" horiz-adv-x="1118" 
d="M441 931q-92 -17 -140.5 -51t-48.5 -79q0 -42 34.5 -73.5t107.5 -54.5l283 -91q92 18 140.5 52t48.5 79q0 41 -34 71t-108 54zM331 318v-67q0 -53 34 -71q22 -11 69 -16t119 -5q73 0 121 6t68 17q33 24 33 88q0 48 -17 72.5t-59 36.5l-363 118q-74 24 -128 51.5t-86 57.5
q-65 64 -65 163q0 85 46.5 145.5t133.5 89.5q-55 32 -78.5 84t-23.5 139q0 157 88 218h-1q43 31 122.5 45.5t196.5 14.5q201 0 288 -55q92 -58 92 -191v-65h-192v42q0 53 -34 72q-39 21 -166 21q-139 0 -171 -20q-27 -15 -27 -71q0 -42 19.5 -65t60.5 -38l217.5 -70
l217.5 -71q215 -70 215 -256q0 -98 -67 -165q-45 -46 -112 -66q35 -24 55 -59q34 -59 34 -176q0 -162 -88 -227q-86 -63 -322 -63q-237 0 -327 54q-95 56 -95 195v87h192z" />
    <glyph glyph-name="bullet" unicode="&#x2022;" horiz-adv-x="1208" 
d="M296 761q0 128 90 217q91 89 218 89t216 -90q90 -89 90 -216t-91 -218t-217 -91q-128 0 -217 91t-89 218z" />
    <glyph glyph-name="paragraph" unicode="&#xb6;" 
d="M948 1371h-124v-1371h-118v1371h-142v-1371h-121v762q-165 12 -263 103q-104 98 -104 254q0 161 111 260t291 99h470v-107z" />
    <glyph glyph-name="registered" unicode="&#xae;" horiz-adv-x="1706" 
d="M716 1042v-256h134q124 0 173 29h-1q44 29 44 95q0 71 -50.5 101.5t-165.5 30.5h-134zM873 1164q184 0 271.5 -59.5t87.5 -186.5q0 -91 -57 -157q-25 -26 -57 -45.5t-70 -28.5l45.5 -94l47.5 -98.5l47.5 -97.5l44.5 -92h-184l-174 360h-159v-360h-163v859h320zM1468 721
q0 128 -45 239.5t-130 197.5q-89 88 -201 134.5t-240 46.5q-123 0 -232 -45t-197 -132q-91 -92 -138 -204.5t-47 -234.5q0 -123 46.5 -233.5t134.5 -199.5q89 -88 200 -134.5t233 -46.5q123 0 236.5 47t204.5 136q86 85 130.5 193t44.5 236zM852 1455q152 0 285 -54.5
t236 -160.5q103 -103 157.5 -235.5t54.5 -281.5q0 -151 -53 -281t-159 -233q-108 -106 -241.5 -162.5t-279.5 -56.5q-148 0 -279 55.5t-237 161.5q-106 105 -160.5 237t-54.5 279q0 144 56.5 278.5t162.5 242.5q103 103 233 157t279 54z" />
    <glyph glyph-name="copyright" unicode="&#xa9;" horiz-adv-x="1706" 
d="M1051 890q-17 78 -68.5 121t-126.5 43q-110 0 -171 -87.5t-61 -245.5q0 -153 64 -241q59 -84 168 -84q80 0 135.5 49t70.5 134h150q-14 -152 -115 -235q-99 -81 -247 -81q-181 0 -286 125q-104 123 -104 339q0 204 109 330q111 126 291 126q137 0 231 -74
q97 -77 111 -219h-151zM1468 723q0 125 -45.5 237t-131.5 198q-89 88 -201 134.5t-238 46.5q-125 0 -235 -45t-196 -132q-89 -91 -136 -203.5t-47 -235.5t46.5 -233.5t134.5 -199.5q89 -88 200 -134.5t233 -46.5q123 0 236.5 47t204.5 136q86 85 130.5 194t44.5 237z
M852 1455q149 0 282.5 -55t238.5 -160q103 -103 157.5 -235.5t54.5 -281.5q0 -151 -53 -281t-159 -233q-108 -106 -241.5 -162.5t-279.5 -56.5t-278 55.5t-238 161.5q-106 105 -160.5 237t-54.5 279q0 145 56.5 278.5t162.5 242.5q103 103 233 157t279 54z" />
    <glyph glyph-name="trademark" unicode="&#x2122;" horiz-adv-x="1706" 
d="M717 1453v-94h-167v-460h-119v460h-171v94h457zM948 1453l148 -374l70 188l68 186h146v-554h-108v367l-69.5 -184.5l-69.5 -182.5h-75l-148 373v-373h-108v554h146z" />
    <glyph glyph-name="acute" unicode="&#xb4;" 
d="M491 1146h-133l227 377h198z" />
    <glyph glyph-name="plusminus" unicode="&#xb1;" horiz-adv-x="1706" 
d="M1455 185v-135h-1204v135h1204zM921 1176v-338h534v-135h-534v-338h-134v338h-536v135h536v338h134z" />
    <glyph glyph-name="pi" unicode="&#x3c0;" horiz-adv-x="1171" 
d="M1121 918h-176l-54.5 -255l-54.5 -255q-30 -135 -30 -179q0 -46 20 -65t68 -19q26 0 55 4.5t60 10.5l-33 -156q-34 -11 -63.5 -15.5t-52.5 -4.5q-109 0 -168 56.5t-59 159.5q0 25 3 54t8 64t16 92.5t28 135.5l39 185l40 187h-315l-96.5 -458.5l-96.5 -459.5h-176l193 918
h-13q-45 0 -70.5 -30.5t-36.5 -96.5h-168q30 170 97 226q33 30 88 44t133 14h850z" />
    <glyph glyph-name="logicalnot" unicode="&#xac;" horiz-adv-x="1706" 
d="M1455 874v-528h-132v391h-1072v137h1204z" />
    <glyph glyph-name="guillemotleft" unicode="&#xab;" horiz-adv-x="981" 
d="M896 207h-217l-253 324l253 325h217l-257 -325zM555 207h-217l-254 324l254 325h217l-257 -325z" />
    <glyph glyph-name="guillemotright" unicode="&#xbb;" horiz-adv-x="981" 
d="M428 207l254 324l-62 79l-66 85l-65.5 84l-60.5 77h215l254 -325l-254 -324h-215zM85 207l256 324l-62.5 79l-66 84l-66 83.5l-61.5 78.5h217l253 -325l-253 -324h-217z" />
    <glyph glyph-name="ellipsis" unicode="&#x2026;" horiz-adv-x="2048" 
d="M113 0v250h208v-250h-208zM794 0v250h208v-250h-208zM1478 0v250h208v-250h-208z" />
    <glyph glyph-name="nonbreakingspace" unicode="&#xa0;" horiz-adv-x="1384" 
 />
    <glyph glyph-name="endash" unicode="&#x2013;" 
d="M-6 488v140h1036v-140h-1036z" />
    <glyph glyph-name="emdash" unicode="&#x2014;" horiz-adv-x="2048" 
d="M8 628h2032v-140h-2032v140z" />
    <glyph glyph-name="quotedblleft" unicode="&#x201c;" horiz-adv-x="1006" 
d="M434 1292v-240h-199v262q0 84 51 128.5t148 44.5l-1 -122q-36 -4 -50.5 -15t-14.5 -36v-22h66zM771 1292v-240h-201v262q0 84 51.5 128.5t149.5 44.5l-1 -122q-38 -4 -53 -15t-15 -36v-22h69z" />
    <glyph glyph-name="quotedblright" unicode="&#x201d;" horiz-adv-x="1006" 
d="M570 1247v240h199v-262q0 -84 -51 -128.5t-148 -44.5v122q35 3 50 14.5t15 36.5v22h-65zM235 1247v240h199v-262q0 -84 -51 -128.5t-148 -44.5v122q36 4 51 15t15 36v22h-66z" />
    <glyph glyph-name="quoteleft" unicode="&#x2018;" horiz-adv-x="664" 
d="M431 1292v-240h-198v262q0 84 51 128.5t147 44.5l-1 -122q-35 -4 -50 -15t-15 -36v-22h66z" />
    <glyph glyph-name="quoteright" unicode="&#x2019;" horiz-adv-x="664" 
d="M233 1247v240h198v-262q0 -84 -51 -128.5t-147 -44.5v122q35 3 50 14.5t15 36.5v22h-65z" />
    <glyph glyph-name="divide" unicode="&#xf7;" horiz-adv-x="1706" 
d="M854 394q26 0 48.5 -9.5t39.5 -26t26.5 -39.5t9.5 -49t-9.5 -48t-26.5 -38.5t-39.5 -26t-48.5 -9.5t-48.5 9.5t-39 26t-26 38.5t-9.5 48t9.5 48.5t26.5 39.5t39 26.5t48 9.5zM854 1081q48 0 87 -37q37 -37 37 -88q0 -26 -9.5 -48.5t-26.5 -39t-39.5 -26t-48.5 -9.5
t-48.5 9.5t-39 26t-26 39t-9.5 48.5q0 52 36 88q39 37 87 37zM1455 680v-134h-1204v134h1204z" />
    <glyph glyph-name="currency" unicode="&#xa4;" horiz-adv-x="1384" 
d="M1254 497q0 -280 -110 -397q-109 -118 -342 -118h-87q-278 0 -390 115t-112 401v22h-184l53 158h131v137h-184l52 159h132v15q0 286 112 401t390 115h87q452 0 452 -465h-204q0 163 -61 221q-59 56 -213 56h-101q-149 0 -203 -60q-55 -61 -55 -245v-38h659l-52 -159h-607
v-137h564l-53 -158h-511v-54q0 -172 54 -235q55 -61 204 -61h101q153 0 213 57q61 58 61 270h204z" />
    <glyph glyph-name="guilsinglleft" unicode="&#x2039;" horiz-adv-x="631" 
d="M550 207h-217l-253 324l253 325h217l-256 -325z" />
    <glyph glyph-name="guilsinglright" unicode="&#x203a;" horiz-adv-x="631" 
d="M81 207l255 324l-62 79l-66 84l-65.5 83.5l-61.5 78.5h216l253 -325l-253 -324h-216z" />
    <glyph glyph-name="daggerdbl" unicode="&#x2021;" 
d="M607 1487v-330h287v-176h-287v-472h287v-176h-287v-333h-190v333h-287v176h287v472h-287v176h287v330h190z" />
    <glyph glyph-name="periodcentered" unicode="&#xb7;" horiz-adv-x="692" 
d="M211 793q0 55 40 94q39 40 95 40t95 -40q40 -39 40 -94t-40 -94q-38 -39 -95 -39t-95 39q-40 39 -40 94z" />
    <glyph glyph-name="quotesinglbase" unicode="&#x201a;" horiz-adv-x="664" 
d="M233 0v240h198v-262q0 -84 -51 -129t-147 -45v123q35 3 50 14.5t15 36.5v22h-65z" />
    <glyph glyph-name="quotedblbase" unicode="&#x201e;" horiz-adv-x="1006" 
d="M235 0v240h199v-262q0 -84 -51 -129t-148 -45v123q35 3 50.5 14.5t15.5 36.5v22h-66zM570 0v240h199v-262q0 -84 -51 -129t-148 -45v123q35 3 50 14.5t15 36.5v22h-65z" />
    <glyph glyph-name="circumflex" unicode="&#x2c6;" 
d="M210 1146l217 377h170l217 -377h-133l-169 241l-85 -120.5l-84 -120.5h-133z" />
    <glyph glyph-name="tilde" unicode="&#x2dc;" 
d="M819 1440q-61 -214 -212 -214q-31 0 -70 10l-92 28q-17 5 -26.5 7t-20.5 2q-21 0 -41.5 -18.5t-36.5 -51.5h-113q26 105 80.5 159.5t133.5 54.5q34 0 57 -8t47 -15.5l47 -14.5q11 -4 24 -6.5t24 -2.5q51 0 80 70h119z" />
    <glyph glyph-name="macron" unicode="&#xaf;" 
d="M243 1243v153h538v-153h-538z" />
    <glyph glyph-name="breve" unicode="&#x2d8;" 
d="M341 1482q6 -75 46.5 -108.5t124.5 -33.5t123.5 33.5t46.5 108.5h117q-5 -77 -24.5 -132.5t-54.5 -91.5t-86.5 -53t-121.5 -17q-137 0 -207 71t-80 223h116z" />
    <glyph glyph-name="dotaccent" unicode="&#x2d9;" 
d="M419 1215v208h186v-208h-186z" />
    <glyph glyph-name="ring" unicode="&#x2da;" 
d="M386 1346q0 -55 36 -90q36 -36 90 -36q51 0 90 37q36 36 36 89q0 54 -36 90q-38 36 -90 36q-54 0 -90 -36q-36 -35 -36 -90zM259 1346q0 107 73 181q74 74 180 74q105 0 180 -75q75 -74 75 -180t-74 -180q-76 -73 -181 -73q-53 0 -97.5 18.5t-82.5 54.5q-73 76 -73 180z
" />
    <glyph glyph-name="hungarumlaut" unicode="&#x2dd;" 
d="M314 1146l162 377h176l-226 -377h-112zM541 1146l182 377h178l-246 -377h-114z" />
    <glyph glyph-name="ogonek" unicode="&#x2db;" 
d="M618 39l-121 -204l1 1q-14 -26 -19.5 -40.5t-5.5 -25.5q0 -18 18 -18h121v-144h-175q-36 0 -60.5 5t-39.5 17.5t-21 32.5t-6 50q0 29 12 60.5t36 62.5l75.5 101.5l75.5 101.5h109z" />
    <glyph glyph-name="caron" unicode="&#x2c7;" 
d="M210 1523h133l169 -241l85 121.5l84 119.5h133l-217 -377h-170z" />
    <glyph glyph-name="numbersign" unicode="#" horiz-adv-x="1575" 
d="M942 841h-216l-21 -59l-20 -55.5l-20 -55.5l-21 -60h219zM942 1453l-164 -469h215l41.5 114.5l43.5 120l43 120l41 114.5h164l-165 -469h306l-50 -143h-307l-21 -59l-20.5 -55.5l-20.5 -55.5l-21 -60h331l-50 -145h-329l-83.5 -233.5l-83.5 -232.5h-167l168 466h-220
l-41 -114.5l-43 -119.5l-43.5 -119l-40.5 -113h-164l165 466h-319l53 145h315q11 32 21.5 59.5l20.5 54.5l20.5 55l22.5 61h-342l46 143h344l41.5 114.5l43.5 120l43.5 120l40.5 114.5h165z" />
    <glyph glyph-name="exclam" unicode="!" horiz-adv-x="516" 
d="M163 0v227h190v-227h-190zM172 388l-9 1099h190l-7 -1099h-174z" />
    <glyph glyph-name="quotedbl" unicode="&#x22;" horiz-adv-x="569" 
d="M221 1434v-577h-137v577h137zM487 1434v-577h-138v577h138z" />
    <glyph glyph-name="Omega" unicode="&#x3a9;" horiz-adv-x="1579" 
d="M1463 174v-174h-604v154q203 121 305.5 282.5t102.5 356.5q0 247 -134 396q-132 150 -342 150q-213 0 -345 -149q-134 -149 -134 -395q0 -198 103 -360t305 -281v-154h-604v174h298q-150 126 -222 276t-72 332q0 319 187 524q190 205 484 205q291 0 482 -204
q188 -203 188 -523q0 -184 -72 -332.5t-224 -277.5h298z" />
    <glyph glyph-name="fraction" unicode="&#x2215;" horiz-adv-x="342" 
d="M-361 -18l867 1523h195l-865 -1523h-197z" />
    <glyph glyph-name="brokenbar" unicode="&#xa6;" 
d="M585 436v-776h-144v776h144zM585 1432v-776h-144v776h144z" />
    <glyph glyph-name="minus" unicode="&#x2212;" horiz-adv-x="1706" 
d="M1455 680v-134h-1204v134h1204z" />
    <glyph glyph-name="sfthyphen" unicode="&#xad;" horiz-adv-x="825" 
d="M121 472v175h583v-175h-583z" />
    <glyph glyph-name="periodcentered" unicode="&#x2219;" horiz-adv-x="692" 
d="M211 793q0 55 40 94q39 40 95 40t95 -40q40 -39 40 -94t-40 -94q-38 -39 -95 -39t-95 39q-40 39 -40 94z" />
    <glyph glyph-name="Euro" horiz-adv-x="1384" 
d="M1254 497q0 -280 -110 -397q-109 -118 -342 -118h-87q-278 0 -390 115t-112 401v22h-184l53 158h131v137h-184l52 159h132v15q0 286 112 401t390 115h87q452 0 452 -465h-204q0 163 -61 221q-59 56 -213 56h-101q-149 0 -203 -60q-55 -61 -55 -245v-38h659l-52 -159h-607
v-137h564l-53 -158h-511v-54q0 -172 54 -235q55 -61 204 -61h101q153 0 213 57q61 58 61 270h204z" />
    <glyph glyph-name="Euro" unicode="&#x20ac;" horiz-adv-x="1384" 
d="M1254 497q0 -280 -110 -397q-109 -118 -342 -118h-87q-278 0 -390 115t-112 401v22h-184l53 158h131v137h-184l52 159h132v15q0 286 112 401t390 115h87q452 0 452 -465h-204q0 163 -61 221q-59 56 -213 56h-101q-149 0 -203 -60q-55 -61 -55 -245v-38h659l-52 -159h-607
v-137h564l-53 -158h-511v-54q0 -172 54 -235q55 -61 204 -61h101q153 0 213 57q61 58 61 270h204z" />
    <glyph glyph-name="uni10D0" unicode="&#x10d0;" horiz-adv-x="1170" 
d="M310 810v-490q0 -169 145 -169h260q145 0 145 169l5 596q0 170 -145 170h-95q-270 0 -270 405h200q0 -230 68 -230h97q345 0 345 -345l-5 -596q0 -345 -345 -345h-260q-345 0 -345 345v490h200z" />
    <glyph glyph-name="uni10D1" unicode="&#x10d1;" horiz-adv-x="1170" 
d="M110 760q0 345 333 345h65l20 93q0 100 -105 151.5t-105 160.5h251q1 -37 80 -102t69 -210l-10 -93h52q300 0 300 -345v-440q0 -345 -345 -345h-260q-345 0 -345 345v440zM715 151q145 0 145 169v440q0 170 -145 170h-280q-125 0 -125 -170v-440q0 -169 145 -169h260z
" />
    <glyph glyph-name="uni10D2" unicode="&#x10d2;" horiz-adv-x="1250" 
d="M110 698q0 345 343 345h297v202q0 80 -100 80h-95q-126 0 -126 -65l1 -85h-190v85q0 240 304 240h126q280 0 280 -255v-213q190 -47 190 -334v-378q0 -345 -345 -345h-340q-345 0 -345 345v378zM795 151q145 0 145 169v378q0 170 -145 170h-340q-145 0 -145 -170v-378
q0 -169 145 -169h340z" />
    <glyph glyph-name="uni10D3" unicode="&#x10d3;" horiz-adv-x="1810" 
d="M1363 1h-1113v176l182 1q-322 327 -322 501v476q0 345 345 345h122q179 0 263 -133q105 133 255 133h262q343 0 343 -345v-428q0 -375 -345 -375h-260q-345 0 -345 375v428q0 170 -175 170h-120q-145 0 -145 -170v-476q0 -171 395 -502h658v-176zM1355 528q145 0 145 199
v428q0 170 -145 170h-260q-145 0 -145 -170v-428q0 -199 145 -199h260z" />
    <glyph glyph-name="uni10D4" unicode="&#x10d4;" horiz-adv-x="1180" 
d="M170 1155q0 345 343 345h202q345 0 345 -345v-835q0 -345 -345 -345h-260q-345 0 -345 345l10 297h200l-10 -297q0 -169 145 -169h260q145 0 145 169v835q0 170 -145 170h-200q-145 0 -145 -170l10 -191h-200z" />
    <glyph glyph-name="uni10D5" unicode="&#x10d5;" horiz-adv-x="1170" 
d="M525 850h163q152 0 152 179v126q0 170 -145 170h-200q-145 0 -145 -170l8 -142h-200l-8 142q0 345 343 345h202q345 0 345 -345v-126q0 -165 -151 -258q171 -93 171 -267v-185q0 -345 -375 -345h-200q-375 0 -375 345l10 249h200l-10 -249q0 -169 175 -169h200
q175 0 175 169v185q0 170 -155 170h-180v176z" />
    <glyph glyph-name="uni10D6" unicode="&#x10d6;" horiz-adv-x="1280" 
d="M60 1124q0 375 333 375h182q300 0 305 -295v-100l-4 -37q294 -46 294 -357v-360q0 -375 -375 -375h-200q-375 0 -375 375v321q0 34 8 70q-168 43 -168 254v129zM795 151q175 0 175 199v360q0 157 -130 184q-9 -188 -305 -194h-114l-1 -29v-321q0 -199 175 -199h200z
M535 866q145 -1 145 138v200q-10 110 -125 120h-160q-135 0 -135 -200v-129q0 -129 175 -129h100z" />
    <glyph glyph-name="uni10D7" unicode="&#x10d7;" horiz-adv-x="1800" 
d="M1470 0l10 1165q0 160 -135 160h-140q-162 0 -183 -138q5 -30 8 -62v-815q0 -335 -335 -335h-240q-335 0 -335 335v855q0 335 333 335h242q140 0 238 -143q90 143 230 143h182q335 0 335 -335l-10 -1165h-200zM695 151q135 0 135 159v855q0 160 -135 160h-240
q-135 0 -135 -160v-855q0 -159 135 -159h240z" />
    <glyph glyph-name="uni10D8" unicode="&#x10d8;" horiz-adv-x="1160" 
d="M130 -1l-10 1165q0 335 333 335h252q335 0 335 -335l-10 -1165h-200l10 1165q0 160 -135 160h-250q-135 0 -135 -160l10 -1165h-200z" />
    <glyph glyph-name="uni10D9" unicode="&#x10d9;" horiz-adv-x="1170" 
d="M505 879l180 -1q155 0 155 183v63q0 96 -145 191l60 195q286 -180 286 -370v-61q0 -185 -149 -280q168 -94 168 -265v-224q0 -335 -345 -335h-260q-345 0 -345 335l10 314h200l-10 -314q0 -159 145 -159h260q145 0 145 159v224q0 170 -150 170h-205v175z" />
    <glyph glyph-name="uni10DA" unicode="&#x10da;" horiz-adv-x="2290" 
d="M1350 757v399q0 170 -145 170h-110q-145 0 -145 -170v-399h-200v399q0 170 -145 170h-150q-145 0 -145 -170l10 -449q0 -185 475 -532h995v-176h-1522v176h227q-375 318 -375 532l-10 449q0 345 343 345h152q150 0 244 -123q94 123 244 123h112q148 0 242 -120
q94 120 248 120h142q343 0 343 -345l-30 -679h-200l30 679q0 170 -145 170h-140q-145 0 -145 -170v-399h-200z" />
    <glyph glyph-name="uni10DB" unicode="&#x10db;" horiz-adv-x="1180" 
d="M110 730q0 345 343 345h262q71 0 145 -48v187q0 110 -135 110h-286q-105 0 -105 -120h-200q0 295 303 295h288q335 0 335 -285v-894q0 -345 -345 -345h-260q-345 0 -345 345v410zM715 151q145 0 145 169v410q0 170 -145 170h-260q-145 0 -145 -170v-410q0 -169 145 -169
h260z" />
    <glyph glyph-name="uni10DC" unicode="&#x10dc;" horiz-adv-x="1180" 
d="M120 1196q0 285 325 285l525 -1v-175l-525 1q-125 0 -125 -110v-168q73 47 143 47h262q345 0 345 -345v-410q0 -345 -345 -345h-260q-345 0 -345 345v876zM725 151q145 0 145 169v410q0 170 -145 170h-260q-145 0 -145 -170v-410q0 -169 145 -169h260z" />
    <glyph glyph-name="uni10DD" unicode="&#x10dd;" horiz-adv-x="1650" 
d="M730 460v696q0 170 -145 170h-120q-145 0 -145 -170l10 -1156h-200l-10 1156q0 345 343 345h122q150 0 245 -153q94 153 245 153h112q343 0 343 -345l-10 -1156h-200l10 1156q0 170 -145 170h-110q-145 0 -145 -170v-696h-200z" />
    <glyph glyph-name="uni10DE" unicode="&#x10de;" horiz-adv-x="1170" 
d="M483 926h202q175 0 175 168q0 139 -174 140h-91q-300 0 -300 267h200q0 -92 98 -92h92q375 0 375 -315q0 -174 -136 -261q136 -96 136 -252v-261q0 -345 -345 -345h-260q-345 0 -345 345l10 360h200l-10 -360q0 -169 145 -169h260q145 0 145 169v261q0 170 -175 170h-200
z" />
    <glyph glyph-name="uni10DF" unicode="&#x10df;" horiz-adv-x="1180" 
d="M230 1481l830 20v-1181q0 -345 -345 -345h-260q-345 0 -345 345l10 315h200l-10 -315q0 -169 145 -169h260q145 0 145 169v1006l-175 -6v-184q0 -315 -325 -315h-230v176h230q125 0 125 139v178l-255 -8v175z" />
    <glyph glyph-name="uni10E0" unicode="&#x10e0;" horiz-adv-x="1670" 
d="M1175 1315h-660q-95 0 -95 -108q0 -127 116 -130h29q180 0 275 -143q94 143 275 143h92q343 0 343 -345l-10 -732h-200l10 732q0 170 -145 170h-90q-175 0 -175 -170v-382h-200v382q0 170 -175 170h-100q-145 0 -145 -170l10 -732h-200l-10 732q0 213 157 299
q-57 70 -57 176q0 283 293 283h662v-175z" />
    <glyph glyph-name="uni10E1" unicode="&#x10e1;" horiz-adv-x="1180" 
d="M892 1194q0 -186 43 -209q135 -50 135 -295v-370q0 -345 -345 -345h-260q-345 0 -345 345v1180h200v-1180q0 -169 145 -169h260q145 0 145 169v370q3 136 -95 185q-75 25 -83 319h200z" />
    <glyph glyph-name="uni10E2" unicode="&#x10e2;" horiz-adv-x="1383" 
d="M120 1080q0 345 343 345h133v75h180v-75h142q345 0 345 -345v-760q0 -345 -345 -345h-453q-345 0 -345 345v760zM596 1265h-131q-145 0 -145 -170v-775q0 -169 145 -169h453q145 0 145 169v775q0 170 -145 170h-142v-673h-180v673z" />
    <glyph glyph-name="uni10E3" unicode="&#x10e3;" horiz-adv-x="1180" 
d="M417 1196q0 129 -142 129h-163v175h163q131 0 226 -121q86 121 199 121h116q244 0 244 -274v-906q0 -345 -345 -345h-260q-345 0 -345 345l10 365h200l-10 -365q0 -169 145 -169h260q145 0 145 169v876q0 129 -60 129h-131q-62 0 -62 -129v-321h-190v321z" />
    <glyph glyph-name="uni10E4" unicode="&#x10e4;" horiz-adv-x="1810" 
d="M1225 812h80q195 -5 195 233v110q0 170 -145 170h-120q-195 0 -175 -170v-464q0 -345 -345 -345h-260q-345 0 -345 345v464q0 345 343 345h262q150 0 244 -123q94 123 274 123h122q345 0 345 -345v-110q0 -216 -185 -324q165 -94 165 -252v-160q0 -308 -374 -308h-809
l-2 176h810q175 0 175 132v160q0 171 -175 171h-80v172zM715 522q145 0 145 169v464q0 170 -145 170h-260q-145 0 -145 -170v-464q0 -169 145 -169h260z" />
    <glyph glyph-name="uni10E5" unicode="&#x10e5;" horiz-adv-x="1180" 
d="M160 1050q0 345 333 345h92q137 0 275 -118v222h200v-1180q0 -345 -345 -345h-260q-345 0 -345 345l10 307h200l-10 -307q0 -169 145 -169h260q145 0 145 169v645q-7 196 -275 256h-90q-135 0 -135 -170l10 -171h-200z" />
    <glyph glyph-name="uni10E6" unicode="&#x10e6;" horiz-adv-x="1720" 
d="M1345 1h-1107l-2 175h207q-313 292 -313 490l-20 490q0 345 343 345h152q160 0 255 -123q94 123 255 123h152q343 0 343 -345l-20 -630h-200l20 630q0 170 -145 170h-150q-155 0 -155 -170v-450h-200v450q0 170 -155 170h-150q-145 0 -145 -170l20 -490q0 -192 374 -490
h641v-175z" />
    <glyph glyph-name="uni10E7" unicode="&#x10e7;" horiz-adv-x="1180" 
d="M340 885q0 -169 215 -169h80q225 0 225 199v564h200v-1160q0 -345 -375 -345h-200q-375 0 -375 345v147h200v-147q0 -169 175 -169h200q175 0 175 169v303q-102 -82 -225 -82h-80q-415 0 -415 345l10 614h1v-1h200z" />
    <glyph glyph-name="uni10E8" unicode="&#x10e8;" horiz-adv-x="1238" 
d="M168 650q0 345 343 345h262q71 0 145 -78v307q0 110 -139 110q-135 0 -105 -190h-250q38 113 82 190h-135q-91 0 -91 -110h-200q0 275 321 275l178 -86q90 86 198 86q341 0 341 -275v-904q0 -345 -345 -345h-260q-345 0 -345 345v330zM773 151q145 0 145 169v330
q0 140 -145 170h-260q-145 0 -145 -170v-330q0 -169 145 -169h260z" />
    <glyph glyph-name="uni10E9" unicode="&#x10e9;" horiz-adv-x="1180" 
d="M120 0v1196q0 305 335 305l124 -1v1q325 0 325 -301q-11 -103 -84 -161q243 -105 250 -339l-10 -700h-200l10 700q0 200 -235 200h-140q-175 0 -175 -200v-700h-200zM320 1008q73 67 173 67h66q145 10 145 125q0 125 -124 126h-125q-135 0 -135 -130v-188z" />
    <glyph glyph-name="uni10EA" unicode="&#x10ea;" horiz-adv-x="1230" 
d="M821 1501q0 -137 84 -138q195 0 195 -328q0 -162 -106 -246q126 -94 126 -262v-208q0 -345 -345 -345h-310q-345 0 -345 345v1153h200v-1153q0 -169 145 -169h310q145 0 145 169v208q0 170 -145 170h-240v175h240v1q125 0 125 162q0 151 -54 151q-225 0 -225 315h200z
" />
    <glyph glyph-name="uni10EB" unicode="&#x10eb;" horiz-adv-x="1180" 
d="M860 1500h200v-1180q0 -345 -345 -345h-260q-345 0 -345 345v410q0 345 345 345h405v425zM310 320q0 -169 145 -169h260q145 0 145 169v580h-405q-145 0 -145 -170v-410z" />
    <glyph glyph-name="uni10EC" unicode="&#x10ec;" horiz-adv-x="1238" 
d="M1070 320q0 -345 -345 -345h-260q-345 0 -345 345v904q0 275 341 275q108 0 198 -86l178 86q321 0 321 -275h-200q0 110 -91 110h-135q44 -77 82 -190h-250q30 190 -105 190q-139 0 -139 -110v-307q74 78 145 78h262q343 0 343 -345v-330zM725 151q145 0 145 169v330
q0 170 -145 170h-260q-145 -30 -145 -170v-330q0 -169 145 -169h260z" />
    <glyph glyph-name="uni10ED" unicode="&#x10ed;" horiz-adv-x="1215" 
d="M735 786h-262q-303 0 -303 325q2 321 303 321h311l-4 68h200l4 -68h121v-175h-109l64 -938q0 -345 -345 -345h-260q-345 0 -345 345l20 297h200l-20 -297q0 -169 145 -169h260q145 0 145 169l-64 938h-321q-103 0 -105 -146q0 -150 105 -150h260v-175z" />
    <glyph glyph-name="uni10EE" unicode="&#x10ee;" horiz-adv-x="1180" 
d="M320 1075h405q345 0 345 -345v-410q0 -345 -345 -345h-260q-345 0 -345 345v1180h200v-425zM320 900v-580q0 -169 145 -169h260q145 0 145 169v410q0 170 -145 170h-405z" />
    <glyph glyph-name="uni10EF" unicode="&#x10ef;" horiz-adv-x="1170" 
d="M160 1366l305 -5l2 138h200l-12 -138l285 5v-175l-295 5l-5 -189h35q375 0 375 -375l10 -313q0 -345 -345 -345h-260q-345 0 -345 345l10 343h200l-10 -343q0 -169 145 -169h260q145 0 145 169l-10 313q0 200 -175 200h-235l15 364l-295 -5v175z" />
    <glyph glyph-name="uni10F0" unicode="&#x10f0;" horiz-adv-x="1170" 
d="M470 1085h245q125 0 125 65v118q0 57 -173 57v-1h-390v176h388q376 0 376 -209v-105q0 -136 -150 -183q159 -52 159 -178v-70q0 -113 -152 -173q162 -64 162 -222v-97q0 -288 -345 -289v1h-260q-345 0 -345 345l10 170h200l-10 -170q0 -169 145 -169h270v-1
q135 1 135 125v88q0 134 -145 134h-235v175h245q125 0 125 78v75q0 84 -145 85h-235v175z" />
    <glyph glyph-name="uni10A0" unicode="&#x10a0;" horiz-adv-x="1150" 
d="M320 620l-20 -300q0 -170 145 -170h260q145 0 145 170v350q0 140 -145 140h-90q-270 0 -270 325h200q0 -150 68 -150h92q345 0 345 -315v-350q0 -345 -345 -345h-260q-345 0 -345 345l20 300h200z" />
    <glyph glyph-name="uni10A1" unicode="&#x10a1;" horiz-adv-x="1150" 
d="M100 680q0 345 343 345h45l20 123q10 120 -95 136.5t-105 215.5h231q1 -117 90 -152t69 -200l-10 -123h25q337 0 337 -345v-360q0 -345 -345 -345h-260q-345 0 -345 345v360zM705 151q145 0 145 169v360q0 170 -175 170h-230q-145 0 -145 -170v-360q0 -169 145 -169h260z
" />
    <glyph glyph-name="uni10A2" unicode="&#x10a2;" horiz-adv-x="1230" 
d="M100 190q0 345 343 345h297v226q0 90 -115 90h-100q-125 0 -125 -87v-63h-200v84q0 240 250 240h256q234 0 234 -244v-267q190 -27 190 -324v-278q0 -345 -345 -345h-340q-345 0 -345 345v278zM785 -257q145 0 145 169v278q0 170 -145 170h-340q-145 0 -145 -170v-278
q0 -169 145 -169h340z" />
    <glyph glyph-name="uni10A3" unicode="&#x10a3;" horiz-adv-x="1790" 
d="M1469 -414h-1244v167h200q-315 271 -315 479l-10 448q0 345 345 345h155q150 0 240 -123q94 123 245 123h262q343 0 343 -345v-360q0 -345 -345 -345h-260q-345 0 -345 345v360q0 170 -165 170h-130q-145 0 -145 -170l10 -448q0 -203 405 -479h754v-167zM1345 151
q145 0 145 169v360q0 170 -145 170h-260q-145 0 -145 -170v-360q0 -169 145 -169h260z" />
    <glyph glyph-name="uni10A4" unicode="&#x10a4;" horiz-adv-x="1160" 
d="M160 680q0 345 343 345h202q345 0 345 -345v-768q0 -345 -345 -345h-260q-345 0 -345 345l30 277h200l-30 -277q0 -169 145 -169h260q145 0 145 169v768q0 170 -145 170h-200q-145 0 -145 -170l10 -191h-200z" />
    <glyph glyph-name="uni10A5" unicode="&#x10a5;" horiz-adv-x="1160" 
d="M475 425h240q115 0 115 200v56q0 170 -145 170h-200q-145 0 -145 -200l10 -72h-200l-10 72q0 375 343 375h202q345 0 345 -345v-116q-30 -125 -131 -218q121 -93 151 -217v-218q0 -345 -345 -345h-260q-345 0 -345 345l20 239h200l-20 -239q0 -169 145 -169h260
q145 0 145 169v138q0 200 -135 200h-240v175z" />
    <glyph glyph-name="uni10A6" unicode="&#x10a6;" horiz-adv-x="1240" 
d="M30 1154q0 345 343 345h142q325 -10 335 -335v-110l-4 -37q294 -46 294 -327v-370q0 -345 -345 -345h-260q-345 0 -345 345v301q0 34 8 70q-168 83 -168 244v219zM795 151q145 0 145 169v370q0 127 -120 185q-29 -226 -345 -225h-85v-330q0 -169 145 -169h260zM535 811
q115 -1 115 193v160q0 160 -135 160h-140q-145 0 -145 -170v-219q0 -124 135 -124h170z" />
    <glyph glyph-name="uni10A7" unicode="&#x10a7;" horiz-adv-x="1820" 
d="M1500 0l20 680q0 170 -145 170h-180q-132 0 -153 -108q5 -30 8 -62v-360q0 -345 -345 -345h-260q-345 0 -345 345v360q0 345 343 345h282q150 0 234 -123q114 123 234 123h182q345 0 345 -345l-20 -680h-200zM705 151q145 0 145 169v360q0 170 -145 170h-260
q-145 0 -145 -170v-360q0 -169 145 -169h260z" />
    <glyph glyph-name="uni10A8" unicode="&#x10a8;" horiz-adv-x="1120" 
d="M120 0l-20 680q0 345 343 345h232q345 0 345 -345l-20 -680h-200l20 680q0 170 -145 170h-230q-145 0 -145 -170l20 -680h-200z" />
    <glyph glyph-name="uni10A9" unicode="&#x10a9;" horiz-adv-x="1160" 
d="M485 425h230q115 0 115 110v86q1 114 -205 279l160 125q240 -214 245 -404v-66q-5 -135 -140 -209q160 -96 160 -216v-218q0 -345 -345 -345h-260q-345 0 -345 345l30 258h200l-30 -258q0 -169 145 -169h260q145 0 145 169v168q0 170 -140 170h-225v175z" />
    <glyph glyph-name="uni10AA" unicode="&#x10aa;" horiz-adv-x="2280" 
d="M1350 340v350q0 160 -145 160h-110q-145 0 -145 -160v-350h-200v350q0 160 -145 160h-160q-145 0 -145 -170l10 -380q0 -190 515 -547h950v-167h-1500v166l250 1q-415 306 -415 547l-10 380q0 345 343 345h162q150 0 245 -153q94 153 243 153h112q148 0 242 -150
q94 150 248 150h142q343 0 343 -345l-20 -550h-200l20 550q0 170 -145 170h-140q-145 0 -145 -160v-350h-200z" />
    <glyph glyph-name="uni10AB" unicode="&#x10ab;" horiz-adv-x="1160" 
d="M100 680q0 345 343 345h262q71 0 145 -68v227q0 140 -135 140h-286q-105 0 -105 -190h-200q0 365 303 365h288q335 0 335 -315v-864q0 -345 -345 -345h-260q-345 0 -345 345v360zM705 151q145 0 145 169v340q0 170 -145 190h-260q-145 0 -145 -170v-360q0 -169 145 -169
h260z" />
    <glyph glyph-name="uni10AC" unicode="&#x10ac;" horiz-adv-x="1160" 
d="M110 1206q0 285 325 285l525 -1v-175l-525 1q-125 0 -125 -110v-248q73 67 143 67h262q345 0 345 -345v-360q0 -345 -345 -345h-260q-345 0 -345 345v886zM715 151q145 0 145 169v360q0 170 -145 170h-260q-145 -20 -145 -190v-340q0 -169 145 -169h260z" />
    <glyph glyph-name="uni10AD" unicode="&#x10ad;" horiz-adv-x="1650" 
d="M730 350v350q0 150 -145 150h-140q-145 0 -145 -170l20 -680h-200l-20 680q0 345 343 345h142q150 0 245 -143q94 143 245 143h132q343 0 343 -345l-10 -680h-200l10 680q0 170 -145 170h-130q-145 0 -145 -150v-350h-200z" />
    <glyph glyph-name="uni10AE" unicode="&#x10ae;" horiz-adv-x="1160" 
d="M733 1440q318 1 318 -228v-120q0 -142 -175 -211q175 -86 174 -250v-311q0 -345 -345 -345h-260q-345 0 -345 345l30 330h200l-30 -330q0 -169 145 -169h260q145 0 145 169v311q0 173 -135 172h-240l-2 175h242q135 0 135 116v81q0 92 -175 90l-90 1q-300 0 -300 235h200
q0 -60 98 -60z" />
    <glyph glyph-name="uni10AF" unicode="&#x10af;" horiz-adv-x="1160" 
d="M220 985l830 40v-1113q0 -345 -345 -345h-260q-345 0 -345 345l20 227h200l-20 -227q0 -169 145 -169h260q145 0 145 169v938l-175 -11v-199q0 -315 -325 -315h-230v176h230q125 0 125 139v186l-255 -16v175z" />
    <glyph glyph-name="uni10B0" unicode="&#x10b0;" horiz-adv-x="1650" 
d="M1175 1315h-600q-175 0 -175 -70v-121q0 -99 185 -99q150 0 245 -143q94 143 245 143h132q343 0 343 -345l-10 -680h-200l10 680q0 170 -145 170h-130q-145 0 -145 -160v-330h-200v330q0 160 -145 160h-140q-145 0 -145 -170l20 -680h-200l-20 680q0 211 154 297
q-54 76 -54 147v121q0 245 373 245h602v-175z" />
    <glyph glyph-name="uni10B1" unicode="&#x10b1;" horiz-adv-x="1160" 
d="M862 1094q0 -177 63 -219q135 -70 135 -285v-280q0 -335 -375 -335h-200q-375 0 -375 335v1190h200v-1190q0 -159 175 -159h200q175 0 175 159v280q0 125 -60 147q-138 32 -138 357h200z" />
    <glyph glyph-name="uni10B2" unicode="&#x10b2;" horiz-adv-x="1363" 
d="M110 650q0 345 343 345h133v210h180v-210h142q345 0 345 -345v-737q0 -345 -345 -345h-453q-345 0 -345 345v737zM586 820h-131q-145 0 -145 -170v-737q0 -169 145 -169h453q145 0 145 169v737q0 170 -145 170h-142v-635h-180v635z" />
    <glyph glyph-name="uni10B3" unicode="&#x10b3;" horiz-adv-x="1140" 
d="M382 399v311q0 140 -135 140h-165v175h165q129 0 224 -132q81 132 184 132h125q250 0 250 -275v-838q0 -345 -345 -345h-260q-345 0 -345 345l20 297h200l-20 -297q0 -169 145 -169h260q145 0 145 169v788q0 150 -80 150h-81q-87 0 -87 -140v-311h-200z" />
    <glyph glyph-name="uni10B4" unicode="&#x10b4;" horiz-adv-x="1810" 
d="M1190 337h135v1q175 3 175 132v240q0 140 -145 140h-160q-132 0 -153 -138q5 -30 8 -62v-275q0 -345 -345 -345h-260q-345 0 -345 345v305q0 345 343 345h262q150 0 244 -123q94 123 244 123h162q345 0 345 -315v-210q0 -169 -159 -261q139 -93 139 -246v-80
q0 -340 -375 -347h-475q-377 1 -377 295h200q0 -119 177 -118h475q175 1 175 140v140q0 140 -149 139l-141 1v174zM705 206q145 0 145 169v305q0 170 -145 170h-260q-145 0 -145 -170v-305q0 -169 145 -169h260z" />
    <glyph glyph-name="uni10B5" unicode="&#x10b5;" horiz-adv-x="1160" 
d="M150 680q0 345 323 345h142q127 0 235 -78v553h200v-1588q0 -345 -345 -345h-260q-345 0 -345 345l20 237h200l-20 -237q0 -169 145 -169h260q145 0 145 169v662q-7 276 -235 276h-140q-125 0 -125 -170l10 -201h-200z" />
    <glyph glyph-name="uni10B6" unicode="&#x10b6;" horiz-adv-x="1700" 
d="M1350 -414h-1138v167h238q-340 369 -340 617l-10 310q0 345 343 345h162q150 0 245 -123q94 123 245 123h162q343 0 343 -345l-20 -510h-200l20 510q0 170 -145 170h-160q-145 0 -145 -150v-340h-200v340q0 150 -145 150h-160q-145 0 -145 -170l10 -310q0 -236 402 -617
h638v-167z" />
    <glyph glyph-name="uni10B7" unicode="&#x10b7;" horiz-adv-x="1160" 
d="M330 478q0 -149 195 -149h100q225 0 225 199v456h200v-1072q0 -345 -345 -345h-260q-345 0 -345 345l10 117h200l-10 -117q0 -169 145 -169h260q145 0 145 169v303q-102 -62 -225 -62h-100q-395 0 -395 345l20 492h200z" />
    <glyph glyph-name="uni10B8" unicode="&#x10b8;" horiz-adv-x="1198" 
d="M138 650q0 345 343 345h262q71 0 145 -68v307q0 100 -139 100q-135 0 -115 -200h-230q33 112 79 200h-152q-81 0 -81 -140h-200q0 305 311 305l188 -86q84 86 198 86q341 0 341 -265v-914q0 -345 -345 -345h-260q-345 0 -345 345v330zM743 151q145 0 145 169v310
q0 170 -145 190h-260q-145 0 -145 -170v-330q0 -169 145 -169h260z" />
    <glyph glyph-name="uni10B9" unicode="&#x10b9;" horiz-adv-x="1160" 
d="M110 -10v1186q0 325 325 325l140 -1q292 0 293 -240v-69q-4 -112 -101 -177q293 -48 293 -334l-10 -690h-200l10 690q0 170 -175 170h-202q-173 -1 -173 -200v-660h-200zM310 978q73 47 173 47q175 0 175 126v77q-2 97 -99 97l-124 1q-125 0 -125 -150v-198z" />
    <glyph glyph-name="uni10BA" unicode="&#x10ba;" horiz-adv-x="1240" 
d="M525 395h260v1q135 0 135 162t-95 167q-174 5 -174 300h200q0 -138 74 -139q195 -10 195 -278q0 -212 -136 -296q156 -94 156 -272v-128q0 -345 -345 -345h-340q-345 0 -345 345v1083h200v-1083q0 -169 145 -169h340q145 0 145 169v128q0 180 -135 180h-280v175z" />
    <glyph glyph-name="uni10BB" unicode="&#x10bb;" horiz-adv-x="1160" 
d="M850 1500h200v-1180q0 -345 -345 -345h-260q-345 0 -345 345v360q0 345 345 345h405v475zM300 320q0 -169 145 -169h260q145 0 145 169v530h-405q-145 0 -145 -170v-360z" />
    <glyph glyph-name="uni10BC" unicode="&#x10bc;" horiz-adv-x="1198" 
d="M1060 320q0 -345 -345 -345h-260q-345 0 -345 345v914q0 265 341 265q114 0 198 -86l188 86q311 0 311 -305h-200q0 140 -81 140h-152q46 -88 79 -200h-230q20 200 -115 200q-139 0 -139 -100v-307q74 68 145 68h262q343 0 343 -345v-330zM715 151q145 0 145 169v330
q0 170 -145 170h-260q-145 -20 -145 -190v-310q0 -169 145 -169h260z" />
    <glyph glyph-name="uni10BD" unicode="&#x10bd;" horiz-adv-x="1195" 
d="M665 380h-192q-313 0 -313 325q3 320 313 320h321l-24 475h200l24 -475h101v-175h-92l47 -938q0 -345 -345 -345h-260q-345 0 -345 345l30 267h200l-30 -267q0 -169 145 -169h260q145 0 145 169l-47 938h-328q-112 0 -115 -145q0 -150 115 -150h190v-175z" />
    <glyph glyph-name="uni10BE" unicode="&#x10be;" horiz-adv-x="1160" 
d="M310 1025h405q345 0 345 -345v-360q0 -345 -345 -345h-260q-345 0 -345 345v1180h200v-475zM310 850v-530q0 -169 145 -169h260q145 0 145 169v360q0 170 -145 170h-405z" />
    <glyph glyph-name="uni10BF" unicode="&#x10bf;" horiz-adv-x="1150" 
d="M160 975h295l7 201h200l-7 -201h275v-175h-290l-10 -294h35q365 0 375 -375l10 -220q0 -345 -345 -345h-260q-345 0 -345 345l20 270h200l-20 -270q0 -169 145 -169h260q145 0 145 169l-10 220q-10 200 -175 200h-242l27 469h-290v175z" />
    <glyph glyph-name="uni10C0" unicode="&#x10c0;" horiz-adv-x="1140" 
d="M423 652h273q114 1 114 81v67q0 69 -125 69h-263v175l273 1q101 0 101 66v89q-1 63 -136 62l-212 1q-193 0 -193 238h200q0 -65 55 -65h250q235 0 235 -177v-115q0 -124 -141 -182q156 -48 156 -132v-140q0 -75 -139 -128q158 -72 158 -187l1 -139q0 -261 -345 -262v1
h-240q-345 0 -345 345l10 110h200l-10 -110q0 -169 145 -169h250v-1q135 -1 135 107v102q0 118 -125 118h-272z" />
    </font>
</defs>
</svg>
